fastshare
Zrodila se hvězda / A Star Is Born (2018)
Vypnout statistiky
KATEGORIEPOSLEDNÍ PŘÍSPĚVKYPOSLEDNÍ OZNÁMENÍSTATISTIKY UŽIVATELE
Nick: Anonymous
Příspěvků: 3354
Hodnost: Warman
Varování: 0
---
Právě je 22 úno 2019, 05:37





Všechny časy jsou v UTC + 1 hodina


Pravidla fóra







Odeslat nové téma Odpovědět na téma  [ Příspěvků: 4 ] 
 Zrodila se hvězda / A Star Is Born (2018) 
Autor Zpráva
Master Sergant
Master Sergant

Registrován: 11 črc 2018, 23:52
Příspěvky: 138
Příspěvek Zrodila se hvězda / A Star Is Born (2018)

A.Star.Is.Born.2018.1080p.BluRay.CZ

Jazyk: Czech
Titulky: Czech
Rok vydání: USA, 2018
Délka: 136 min
Žánr: Drama / Romantický / Hudební


Zrodila se hvězda / A Star Is Born (2018)
__.__



)..(


26 led 2019, 08:16
Profil
Captain
Captain

Registrován: 15 črc 2008, 21:29
Příspěvky: 297
Příspěvek Re: Zrodila se hvězda / A Star Is Born (2018)

Zrodila se hvězda / A Star Is Born (2018) [BR-RIP]

Drama / Romantický / Hudební
Hlavní roli v dechberoucím romantickém dramatu Zrodila se hvězda hrají Bradley Cooper a Stefani Germanotta, kterou ovšem celý svět lépe zná pod jejím uměleckým pseudonymem jako hudební superstar Lady Gaga. Pro čtyřnásobného držitele nominace na Oscara Bradleyho Coopera je tento film jeho režijním debutem. Cooper ve filmu zároveň hraje hvězdu country Jacksona Mainea, který objeví neznámou talentovanou zpěvačku Ally (Lady Gaga). Když se oba vrhnou do vášnivého milostného vztahu, Jack přiměje Ally k vystupování v záři reflektorů a katapultuje ji tak ke slávě. Ale když Allyin raketový start zastíní jeho vlastní kariéru, Jack stále obtížněji nese svůj ústup z velkých pódií a o to více se potýká se svými vnitřními démony.

INFO:

Re: Zrodila se hvězda / A Star Is Born (2018)
________________________________________________________________________________

7835 MB

Video: 1920x800 - AVC/H264 - 23.976 fps - 7 Mbps
Audio: CZ dabing - AC3 5.1 - 448 Kbps
Audio: ENG - AAC 5.1 - 448 Kbps
Titulky: forced CZ + CZ + ENG
Čas: 2:15:45

MediaInfo
General
Format : Matroska
Format version : Version 4 / Version 2
File size : 7.30 GiB
Duration : 2 h 15 min
Overall bit rate : 7 695 kb/s
Writing application : Lavf57.83.100
Writing library : Lavf57.83.100
ErrorDetectionType : Per level 1

Video
ID : 1
Format : AVC
Format/Info : Advanced Video Codec
Format profile : [email protected]
Format settings : CABAC / 4 Ref Frames
Format settings, CABAC : Yes
Format settings, RefFrames : 4 frames
Codec ID : V_MPEG4/ISO/AVC
Duration : 2 h 15 min
Nominal bit rate : 7 000 kb/s
Width : 1 920 pixels
Height : 800 pixels
Display aspect ratio : 2.40:1
Frame rate mode : Variable
Color space : YUV
Chroma subsampling : 4:2:0
Bit depth : 8 bits
Scan type : Progressive
Writing library : x264 core 155 r2901 7d0ff22
Encoding settings : cabac=1 / ref=3 / deblock=1:-1:-1 / analyse=0x3:0x113 / me=hex / subme=7 / psy=1 / psy_rd=1.00:0.15 / mixed_ref=1 / me_range=16 / chroma_me=1 / trellis=1 / 8x8dct=1 / cqm=0 / deadzone=21,11 / fast_pskip=0 / chroma_qp_offset=-3 / threads=12 / lookahead_threads=2 / sliced_threads=0 / nr=0 / decimate=1 / interlaced=0 / bluray_compat=0 / constrained_intra=0 / bframes=3 / b_pyramid=2 / b_adapt=1 / b_bias=0 / direct=3 / weightb=1 / open_gop=1 / weightp=2 / keyint=240 / keyint_min=120 / scenecut=40 / intra_refresh=0 / rc_lookahead=72 / rc=abr / mbtree=1 / bitrate=7000 / ratetol=1.0 / qcomp=0.60 / qpmin=0 / qpmax=69 / qpstep=4 / ip_ratio=2.00 / aq=1:1.00
Default : Yes
Forced : No

Audio #1
ID : 2
Format : AC-3
Format/Info : Audio Coding 3
Codec ID : A_AC3
Duration : 2 h 15 min
Bit rate mode : Constant
Bit rate : 448 kb/s
Channel(s) : 6 channels
Channel positions : Front: L C R, Side: L R, LFE
Sampling rate : 48.0 kHz
Frame rate : 31.250 FPS (1536 SPF)
Bit depth : 16 bits
Compression mode : Lossy
Stream size : 435 MiB (6%)
Language : Czech
Service kind : Complete Main
Default : Yes
Forced : No

Audio #2
ID : 3
Format : AAC
Format/Info : Advanced Audio Codec
Format profile : LC
Codec ID : A_AAC-2
Duration : 2 h 15 min
Channel(s) : 6 channels
Channel positions : Front: L C R, Side: L R, LFE
Sampling rate : 48.0 kHz
Frame rate : 46.875 FPS (1024 SPF)
Compression mode : Lossy
Writing library : Lavc57.107.100 aac
Language : English
Default : No
Forced : No

Text #1
ID : 4
Format : UTF-8
Codec ID : S_TEXT/UTF8
Codec ID/Info : UTF-8 Plain Text
Duration : 2 h 15 min
Title : forced
Writing library : Lavc57.107.100 srt
Language : Czech
Default : Yes
Forced : No

Text #2
ID : 5
Format : UTF-8
Codec ID : S_TEXT/UTF8
Codec ID/Info : UTF-8 Plain Text
Duration : 2 h 9 min
Writing library : Lavc57.107.100 srt
Language : Czech
Default : No
Forced : No

Text #3
ID : 6
Format : UTF-8
Codec ID : S_TEXT/UTF8
Codec ID/Info : UTF-8 Plain Text
Duration : 2 h 15 min
Writing library : Lavc57.107.100 srt
Language : English
Default : No
Forced : No

FullHD - AVC


7760 MB

Video: 1920x800 - HEVC/H265 - 23.976 fps - 7 Mbps
Audio: CZ dabing - AC3 5.1 - 448 Kbps
Audio: ENG - AAC 5.1 - 448 Kbps
Titulky: forced CZ + CZ + ENG
Čas: 2:15:45

MediaInfo
General
Format : Matroska
Format version : Version 4 / Version 2
File size : 7.23 GiB
Duration : 2 h 15 min
Overall bit rate : 7 621 kb/s
Writing application : Lavf57.83.100
Writing library : Lavf57.83.100
ErrorDetectionType : Per level 1

Video
ID : 1
Format : HEVC
Format/Info : High Efficiency Video Coding
Format profile : [email protected]@Main
Codec ID : V_MPEGH/ISO/HEVC
Duration : 2 h 15 min
Width : 1 920 pixels
Height : 800 pixels
Display aspect ratio : 2.40:1
Frame rate mode : Constant
Frame rate : 23.976 (24000/1001) FPS
Color space : YUV
Chroma subsampling : 4:2:0
Bit depth : 8 bits
Writing library : x265 2.9:[Windows][GCC 7.1.0][64 bit] 8bit+10bit+12bit
Encoding settings : cpuid=1111039 / frame-threads=3 / numa-pools=8 / wpp / no-pmode / no-pme / no-psnr / no-ssim / log-level=2 / input-csp=1 / input-res=1920x800 / interlace=0 / total-frames=0 / level-idc=0 / high-tier=1 / uhd-bd=0 / ref=3 / no-allow-non-conformance / no-repeat-headers / annexb / no-aud / no-hrd / info / hash=0 / no-temporal-layers / open-gop / min-keyint=24 / keyint=240 / gop-lookahead=0 / bframes=4 / b-adapt=2 / b-pyramid / bframe-bias=0 / rc-lookahead=20 / lookahead-slices=5 / scenecut=40 / radl=0 / no-intra-refresh / ctu=64 / min-cu-size=8 / no-rect / no-amp / max-tu-size=32 / tu-inter-depth=1 / tu-intra-depth=1 / limit-tu=0 / rdoq-level=0 / dynamic-rd=0.00 / no-ssim-rd / signhide / no-tskip / nr-intra=0 / nr-inter=0 / no-constrained-intra / strong-intra-smoothing / max-merge=2 / limit-refs=3 / no-limit-modes / me=1 / subme=2 / merange=57 / temporal-mvp / weightp / no-weightb / no-analyze-src-pics / deblock=0:0 / sao / no-sao-non-deblock / rd=3 / no-early-skip / rskip / no-fast-intra / no-tskip-fast / no-cu-lossless / no-b-intra / no-splitrd-skip / rdpenalty=0 / psy-rd=2.00 / psy-rdoq=0.00 / no-rd-refine / no-lossless / cbqpoffs=0 / crqpoffs=0 / rc=crf / crf=18.0 / qcomp=0.60 / qpstep=4 / stats-write=0 / stats-read=0 / ipratio=1.40 / pbratio=1.30 / aq-mode=1 / aq-strength=1.00 / cutree / zone-count=0 / no-strict-cbr / qg-size=32 / no-rc-grain / qpmax=69 / qpmin=0 / no-const-vbv / sar=1 / overscan=0 / videoformat=5 / range=0 / colorprim=1 / transfer=1 / colormatrix=1 / chromaloc=0 / display-window=0 / max-cll=0,0 / min-luma=0 / max-luma=255 / log2-max-poc-lsb=8 / vui-timing-info / vui-hrd-info / slices=1 / no-opt-qp-pps / no-opt-ref-list-length-pps / no-multi-pass-opt-rps / scenecut-bias=0.05 / no-opt-cu-delta-qp / no-aq-motion / no-hdr / no-hdr-opt / no-dhdr10-opt / no-idr-recovery-sei / analysis-reuse-level=5 / scale-factor=0 / refine-intra=0 / refine-inter=0 / refine-mv=0 / no-limit-sao / ctu-info=0 / no-lowpass-dct / refine-mv-type=0 / copy-pic=1 / max-ausize-factor=1.0 / no-dynamic-refine / no-single-sei
Default : Yes
Forced : No
Color range : Limited
Color primaries : BT.709
Transfer characteristics : BT.709
Matrix coefficients : BT.709

Audio #1
ID : 2
Format : AC-3
Format/Info : Audio Coding 3
Codec ID : A_AC3
Duration : 2 h 15 min
Bit rate mode : Constant
Bit rate : 448 kb/s
Channel(s) : 6 channels
Channel positions : Front: L C R, Side: L R, LFE
Sampling rate : 48.0 kHz
Frame rate : 31.250 FPS (1536 SPF)
Bit depth : 16 bits
Compression mode : Lossy
Stream size : 435 MiB (6%)
Language : Czech
Service kind : Complete Main
Default : Yes
Forced : No

Audio #2
ID : 3
Format : AAC
Format/Info : Advanced Audio Codec
Format profile : LC
Codec ID : A_AAC-2
Duration : 2 h 15 min
Channel(s) : 6 channels
Channel positions : Front: L C R, Side: L R, LFE
Sampling rate : 48.0 kHz
Frame rate : 46.875 FPS (1024 SPF)
Compression mode : Lossy
Writing library : Lavc57.107.100 aac
Language : English
Default : No
Forced : No

Text #1
ID : 4
Format : UTF-8
Codec ID : S_TEXT/UTF8
Codec ID/Info : UTF-8 Plain Text
Duration : 2 h 15 min
Title : forced
Writing library : Lavc57.107.100 srt
Language : Czech
Default : Yes
Forced : No

Text #2
ID : 5
Format : UTF-8
Codec ID : S_TEXT/UTF8
Codec ID/Info : UTF-8 Plain Text
Duration : 2 h 9 min
Writing library : Lavc57.107.100 srt
Language : Czech
Default : No
Forced : No

Text #3
ID : 6
Format : UTF-8
Codec ID : S_TEXT/UTF8
Codec ID/Info : UTF-8 Plain Text
Duration : 2 h 15 min
Writing library : Lavc57.107.100 srt
Language : English
Default : No
Forced : No

FullHD - HEVC

________________________________________________________________________________


26 led 2019, 14:20
Profil
Colonel 5 th class
Colonel 5 th class

Registrován: 09 bře 2009, 18:27
Příspěvky: 645
Příspěvek Re: Zrodila se hvězda / A Star Is Born (2018)

A.Star.Is.Born.2018.1080p.BluRay.x264-CZ.ENG




Cover:

Re: Zrodila se hvězda / A Star Is Born (2018)


Info:

Jazyk: CZ 5.1, ENG 5.1
Titulky: Forced cz
Kvalita zvuku: MediaInfo
Kvalita videa: MediaInfo

Csfd:

Info:


Download:


28 led 2019, 23:22
Profil
Colonel 5 th class
Colonel 5 th class

Registrován: 09 bře 2009, 18:27
Příspěvky: 645
Příspěvek Re: Zrodila se hvězda / A Star Is Born (2018)

A.Star.Is.Born.2018.2160p.BluRay.x265.10bit.HDR.DTS-HD.MA.TrueHD.7.1.ENG.5.1.CZ.Atmos-SWTYBLZ



Re: Zrodila se hvězda / A Star Is Born (2018)
Cover:

Re: Zrodila se hvězda / A Star Is Born (2018)


Info:

Jazyk: CZ 5.1, ENG 7.1, ENG 5.1
Titulky: Forced cz
Kvalita zvuku: MediaInfo
Kvalita videa: MediaInfo

Csfd:

Info:


Download:


11 úno 2019, 11:58
Profil
Zobrazit příspěvky za předchozí:  Seřadit podle  
Odeslat nové téma Odpovědět na téma  [ Příspěvků: 4 ] 

Všechny časy jsou v UTC + 1 hodina


Nemůžete zakládat nová témata v tomto fóru
Nemůžete odpovídat v tomto fóru
Nemůžete upravovat své příspěvky v tomto fóru
Nemůžete mazat své příspěvky v tomto fóru
Nemůžete přikládat soubory v tomto fóru









StahovaniZaSMS Pizza Modena MP3 free download