fastshare
Vražedná pole / The Killing Fields (1984)
Vypnout statistiky
KATEGORIEPOSLEDNÍ PŘÍSPĚVKYPOSLEDNÍ OZNÁMENÍSTATISTIKY UŽIVATELE
Nick: Anonymous
Příspěvků: 3355
Hodnost: Warman
Varování: 0
---
Právě je 24 led 2019, 05:34





Všechny časy jsou v UTC + 1 hodina


Pravidla fóra







Odeslat nové téma Odpovědět na téma  [ Příspěvků: 4 ] 
 Vražedná pole / The Killing Fields (1984) 
Autor Zpráva
Private 1 st class
Private 1 st class

Registrován: 10 pro 2007, 21:52
Příspěvky: 19
Příspěvek Re: Vražedná pole / The Killing Fields (1984)

Zdravim, byo by možné linky aktualizovat? Nikde jinde tento film nemůžu sehnat. Díky


31 led 2009, 10:15
Profil
Major
Major
Uživatelský avatar

Registrován: 24 úno 2009, 10:16
Příspěvky: 342
Bydliště: Los Angeles
Příspěvek Vražedná pole / Killing Fields, The (1984)

Vražedná pole / Killing Fields, The (1984) Vražedná Pole
Vražedná pole / Killing Fields, The (1984) Killing Fields, The

Vražedná pole / Killing Fields, The (1984)

Citace:
Drama / Válečný
Velká Británie, 1984

Režie: Roland Joffé
Hrají: Sam Waterston, Haing S. Ngor, John Malkovich, Julian Sands, Craig T. Nelson, Mark Long, Patrick Malahide


Sydney Schanberg je vyslán jako reportér New York Times do Kambodži, kde právě probíhá občanská válka. Společně s místním zástupcem Dithem Pranem mapují tragické následky a šílenství války a referují o nich. Když americké jednotky opouštějí zemi, pošle Dith Pran svoji rodinu s nimi, aby ji uchránil před nebezpečím. Sám ale zůstává se Schranbergem a dále mu pomáhá se zprávami o dalších událostech. Ten, jako Američan, pak nemá problémy s opuštěním válkou zmítané Kambodži. Jenže situace u Prana je odlišná - je občanem této země a Rudí Khmérové se blíží...



Jazyk: Český
Release: Vrazedna.Pole.1984.DVDRip.DivX.CZ



Citace:
General : C:\Vrazedna.Pole.1984.DVDRip.DivX.CZ.avi
Format : AVI at 1 523 Kbps
Length : 1 GiB for 2h 16mn 13s 923ms

Video #0 : MPEG-4 Visual at 1 318 Kbps
Aspect : 720 x 384 (1.875) at 25.000 fps

Audio #0 : MPEG Audio at 192 Kbps
Infos : 2 kanály, 44,1 KHz


HellShare.com


Share-Rapid.com


Upnito.sk


RapidShare.com


Netload.in



... Enjoy with WoodoX of unique crew uploaders uploads !!!


29 črc 2009, 11:37
Profil
Warrant
Warrant

Registrován: 10 úno 2008, 21:44
Příspěvky: 184
Příspěvek Re: Vražedná pole / The Killing Fields (1984)

Vražedná pole / Killing Fields, The (1984)

Re: Vražedná pole / The Killing Fields (1984)

Odkaz

Obsah


Info - velmi kvalitní DVD rip


Download
HELLSHARE

SHARE-RAPID


17 pro 2011, 13:22
Profil
Colonel 2 nd class
Colonel 2 nd class

Registrován: 30 pro 2007, 17:16
Příspěvky: 407
Příspěvek Re: Vražedná pole / The Killing Fields (1984)

Vražedná pole / The Killing Field (1984)

Video/Zdroj: BDRip 1080p
Audio: CZ AAC 2ch, EN AAC 5.1ch
Titulky: CZ


Re: Vražedná pole / The Killing Fields (1984)

CSFD / IMDB


INFO
Citace:
Format : Matroska
Format version : Version 4 / Version 2
File size : 2.83 GiB
Duration : 2 h 21 min
Overall bit rate : 2 853 kb/s

Video
Format : AVC
Format profile : [email protected]
Duration : 2 h 21 min
Bit rate : 2 500 kb/s
Width : 1 920 pixels
Height : 1 080 pixels
Display aspect ratio : 16:9
Frame rate mode : Constant
Frame rate : 23.976 (23976/1000) FPS
Color space : YUV
Chroma subsampling : 4:2:0
Bit depth : 8 bits
Scan type : Progressive
Bits/(Pixel*Frame) : 0.050
Stream size : 2.48 GiB (88%)

Audio #1
Format : AAC
Duration : 2 h 21 min
Bit rate : 128 kb/s
Channel(s) : 2 channels
Channel positions : Front: L R
Sampling rate : 48.0 kHz / 24.0 kHz
Frame rate : 23.438 FPS (1024 SPF)
Compression mode : Lossy
Delay relative to video : -239 ms
Stream size : 130 MiB (4%)
Language : Czech

Audio #2
Format : AAC
Duration : 2 h 21 min
Bit rate : 224 kb/s
Channel(s) : 6 channels
Channel positions : Front: L C R, Side: L R, LFE
Sampling rate : 48.0 kHz
Frame rate : 46.875 FPS (1024 SPF)
Compression mode : Lossy
Stream size : 227 MiB (8%)
Language : English

Text
Format : UTF-8
Language : Czech
Default : No
Forced : No


FASTSHARE



05 led 2019, 01:02
Profil
Zobrazit příspěvky za předchozí:  Seřadit podle  
Odeslat nové téma Odpovědět na téma  [ Příspěvků: 4 ] 

Všechny časy jsou v UTC + 1 hodina


Nemůžete zakládat nová témata v tomto fóru
Nemůžete odpovídat v tomto fóru
Nemůžete upravovat své příspěvky v tomto fóru
Nemůžete mazat své příspěvky v tomto fóru
Nemůžete přikládat soubory v tomto fóru









StahovaniZaSMS Pizza Modena MP3 free download