fastshare
Válečníci / Tau ming chong / Warlords (2007)
Vypnout statistiky
KATEGORIEPOSLEDNÍ PŘÍSPĚVKYPOSLEDNÍ OZNÁMENÍSTATISTIKY UŽIVATELE
Nick: Anonymous
Příspěvků: 3355
Hodnost: Warman
Varování: 0
---
Právě je 23 led 2019, 15:18





Všechny časy jsou v UTC + 1 hodina


Pravidla fóra







Odeslat nové téma Odpovědět na téma  [ Příspěvků: 7 ] 
 Válečníci / Tau ming chong / Warlords (2007) 
Autor Zpráva
Příspěvek Válečníci / Tau ming chong / Warlords (2007)

Válečníci / Tau ming chong / Warlords (2007)

Válečníci / Tau ming chong / Warlords (2007)



Film se odehrává v Číně uprostřed povstání kolem roku 1870. Generál Pang stěží přežil masakr svých vojáků. Nyní se připojuje ke skupině banditů, kterou vedou Er Hu a Wu Yang. Tito tři muži složí přísahu a stanou se pokrevními bratry…
V Číně kolem roku 1870 byla moc zkorumpované dynastie Qing ohrožena vzestupem revoluční armády, jíž vedl náboženský fanatik, a občanská válka trhala zemi na kusy. Pang, dobrý muž bojující na straně Qinga je jedním z mála přeživších krvavé bitvy mezi revolucionáři a Qingovými vojsky. Hledá, kde by složil hlavu a útočiště nachází u krásné sedlácké ženy Lian. Pang s Lian stráví noc, jeden druhému v náručí a Pang se do své hostitelky zamiluje.
Pang se vydává na cestu domů, na níž se spřátelí se dvěma bandity, Zhaem a Jiangem. Když Jianga přepadnou ze zálohy, Pang mu zachrání život a všichni tři spolu uzavřou pokrevní bratrství. Pang své nové bratry přesvědčí, aby společně bojovali proti revolucionářům. Je přesvědčen, že s pomocí těchto dvou přátel se mu podaří zvítězit. Jenže sny o slávě potlačí jejich zdravý rozum a vzájemný smysl pro loajalitu, Zhao s Jiangem přestanou věřit v jejich alianci. A vše se ještě zhorší, když vyjde najevo, že Lian je Zhaova žena… [Zdroj: HBO]

Akční / Drama / Historický
Hong Kong / Čína, 2007, 109 min (SE: 126 min)
Režie: Peter Chan
Hrají: Jet Li, Andy Lau, Takeshi Kaneshiro, Jinglei Xu, Guo Xiaodong

TV HBO Rip - Český dabing


Válečníci / Tau ming chong / Warlords (2007)

Válečníci / Tau ming chong / Warlords (2007)

Válečníci / Tau ming chong / Warlords (2007)

Válečníci / Tau ming chong / Warlords (2007)

Válečníci / Tau ming chong / Warlords (2007)


30 říj 2011, 20:24
Army General
Army General

Registrován: 21 črc 2009, 11:51
Příspěvky: 932
Příspěvek Re: Válečníci / Tau ming chong / Warlords (2007)

Válečníci / Tau ming chong / Warlords (2007)
Re: Válečníci / Tau ming chong / Warlords (2007)

Re: Válečníci / Tau ming chong / Warlords (2007)



Re: Válečníci / Tau ming chong / Warlords (2007)
GENERAL TVRip
Citace:
Format : AVI
Format/Info : Audio Video Interleave
File size : 1.36 GiB
Duration : 1h 48mn
Overall bit rate : 1 797 Kbps
Writing application : VirtualDubMod 1.5.10.2 (build 2542/release)
Writing library : VirtualDubMod build 2542/release

Video
ID : 0
Format : MPEG-4 Visual
Format profile : Advanced [email protected]
Format settings, BVOP : 1
Format settings, QPel : No
Format settings, GMC : No warppoints
Format settings, Matrix : Default (H.263)
Muxing mode : Packed bitstream
Codec ID : XVID
Codec ID/Hint : XviD
Duration : 1h 48mn
Bit rate : 1 659 Kbps
Width : 640 pixels
Height : 364 pixels
Display aspect ratio : 16:9
Frame rate : 25.000 fps
Color space : YUV
Chroma subsampling : 4:2:0
Bit depth : 8 bits
Scan type : Progressive
Compression mode : Lossy
Bits/(Pixel*Frame) : 0.285
Stream size : 1.26 GiB (92%)
Writing library : XviD 62

Audio
ID : 1
Format : MPEG Audio
Format version : Version 1
Format profile : Layer 3
Mode : Joint stereo
Mode extension : MS Stereo
Codec ID : 55
Codec ID/Hint : MP3
Duration : 1h 48mn
Bit rate mode : Constant
Bit rate : 128 Kbps
Channel(s) : 2 channels
Sampling rate : 44.1 KHz
Compression mode : Lossy
Stream size : 99.6 MiB (7%)
Alignment : Split accross interleaves
Interleave, duration : 40 ms (1.00 video frame)
Interleave, preload duration : 500 ms







Re: Válečníci / Tau ming chong / Warlords (2007)



Re: Válečníci / Tau ming chong / Warlords (2007)


Re: Válečníci / Tau ming chong / Warlords (2007)

Re: Válečníci / Tau ming chong / Warlords (2007)



Naposledy upravil lapepa dne 31 říj 2011, 07:40, celkově upraveno 1

30 říj 2011, 20:28
Profil
Captain
Captain

Registrován: 17 zář 2011, 14:32
Příspěvky: 294
Příspěvek Re: Válečníci / Tau ming chong / Warlords (2007)

Válečníci / Tau ming chong / Warlords 2007_TVRip.CZ

Re: Válečníci / Tau ming chong / Warlords (2007)

Re: Válečníci / Tau ming chong / Warlords (2007)

Citace:
Akční / Drama / Historický
Hong Kong / Čína, 2007
Režie:
Peter Chan
Hrají:
Jet Li, Andy Lau, Takeshi Kaneshiro, Jinglei Xu, Guo Xiaodong

Film se odehrává v Číně uprostřed povstání kolem roku 1870. Generál Pang stěží přežil masakr svých vojáků. Nyní se připojuje ke skupině banditů, kterou vedou Er Hu a Wu Yang. Tito tři muži složí přísahu a stanou se pokrevními bratry…
V Číně kolem roku 1870 byla moc zkorumpované dynastie Qing ohrožena vzestupem revoluční armády, jíž vedl náboženský fanatik, a občanská válka trhala zemi na kusy. Pang, dobrý muž bojující na straně Qinga je jedním z mála přeživších krvavé bitvy mezi revolucionáři a Qingovými vojsky. Hledá, kde by složil hlavu a útočiště nachází u krásné sedlácké ženy Lian. Pang s Lian stráví noc, jeden druhému v náručí a Pang se do své hostitelky zamiluje.
Pang se vydává na cestu domů, na níž se spřátelí se dvěma bandity, Zhaem a Jiangem. Když Jianga přepadnou ze zálohy, Pang mu zachrání život a všichni tři spolu uzavřou pokrevní bratrství. Pang své nové bratry přesvědčí, aby společně bojovali proti revolucionářům. Je přesvědčen, že s pomocí těchto dvou přátel se mu podaří zvítězit. Jenže sny o slávě potlačí jejich zdravý rozum a vzájemný smysl pro loajalitu, Zhao s Jiangem přestanou věřit v jejich alianci. A vše se ještě zhorší, když vyjde najevo, že Lian je Zhaova žena…

Re: Válečníci / Tau ming chong / Warlords (2007)
Citace:
Zdroj: TV HBO
Video:
1397,54 MB
Dĺžka 01:48:46
Kodek XviD (AVI)
Bitrate 1659 kb/s
Šírka 640 pixels
Výška 364 pixels
Pomer strán 1,758
Frekvencia snímok 25,000 fps
Prekladanie Progressive
Audio:
Kodek mp3
Bitrate 128 kb/s
Bitrate režim Constant
Počet kánálov 2 (stereo)


Re: Válečníci / Tau ming chong / Warlords (2007)

Re: Válečníci / Tau ming chong / Warlords (2007)


Re: Válečníci / Tau ming chong / Warlords (2007)

Re: Válečníci / Tau ming chong / Warlords (2007)


Re: Válečníci / Tau ming chong / Warlords (2007)

Re: Válečníci / Tau ming chong / Warlords (2007)




Re: Válečníci / Tau ming chong / Warlords (2007)


31 říj 2011, 00:59
Profil
Sergeant
Sergeant

Registrován: 16 dub 2011, 21:52
Příspěvky: 118
Příspěvek Re: Válečníci / Tau ming chong / Warlords (2007)

Re: Válečníci / Tau ming chong / Warlords (2007)

Re: Válečníci / Tau ming chong / Warlords (2007)


Re: Válečníci / Tau ming chong / Warlords (2007)

Citace:
Zdroj: TV HBO
Video:
1397,54 MB
Dĺžka 01:48:46
Kodek XviD (AVI)
Bitrate 1659 kb/s
Šírka 640 pixels
Výška 364 pixels
Pomer strán 1,758
Frekvencia snímok 25,000 fps
Prekladanie Progressive
Audio:
Kodek mp3
Bitrate 128 kb/s
Bitrate režim Constant
Počet kánálov 2 (stereo)



Re: Válečníci / Tau ming chong / Warlords (2007)


Re: Válečníci / Tau ming chong / Warlords (2007)


Re: Válečníci / Tau ming chong / Warlords (2007)



Re: Válečníci / Tau ming chong / Warlords (2007)


31 říj 2011, 07:48
Profil
Sergeant
Sergeant

Registrován: 11 kvě 2009, 10:51
Příspěvky: 81
Příspěvek Re: Válečníci / Tau ming chong / Warlords (2007)

Válečníci / Tau ming chong / Warlords (2007) CZ

Re: Válečníci / Tau ming chong / Warlords (2007)



Akční / Drama / Historický
Hong Kong / Čína, 2007, 109 min (SE: 126 min)

Režie:
Peter Chan
Hrají:
Jet Li, Andy Lau, Takeshi Kaneshiro, Jinglei Xu, Guo Xiaodong

Obsah:
Film se odehrává v Číně uprostřed povstání kolem roku 1870. Generál Pang stěží přežil masakr svých vojáků. Nyní se připojuje ke skupině banditů, kterou vedou Er Hu a Wu Yang. Tito tři muži složí přísahu a stanou se pokrevními bratry…
V Číně kolem roku 1870 byla moc zkorumpované dynastie Qing ohrožena vzestupem revoluční armády, jíž vedl náboženský fanatik, a občanská válka trhala zemi na kusy. Pang, dobrý muž bojující na straně Qinga je jedním z mála přeživších krvavé bitvy mezi revolucionáři a Qingovými vojsky. Hledá, kde by složil hlavu a útočiště nachází u krásné sedlácké ženy Lian. Pang s Lian stráví noc, jeden druhému v náručí a Pang se do své hostitelky zamiluje.
Pang se vydává na cestu domů, na níž se spřátelí se dvěma bandity, Zhaem a Jiangem. Když Jianga přepadnou ze zálohy, Pang mu zachrání život a všichni tři spolu uzavřou pokrevní bratrství. Pang své nové bratry přesvědčí, aby společně bojovali proti revolucionářům. Je přesvědčen, že s pomocí těchto dvou přátel se mu podaří zvítězit. Jenže sny o slávě potlačí jejich zdravý rozum a vzájemný smysl pro loajalitu, Zhao s Jiangem přestanou věřit v jejich alianci. A vše se ještě zhorší, když vyjde najevo, že Lian je Zhaova žena…

Dĺžka..............................01h 48mn 45s
Kodek.............................XviD (AVI)
Bitrate.............................1 659 Kbps
Šírka...............................640 pixels
Výška...............................364 pixels
Frekvencia snímok...............25.000 fps
Velkost............................1.36 GB
Jazyk...............................český
Audio............................ 128 Kbps MP3 2CH

Re: Válečníci / Tau ming chong / Warlords (2007)Re: Válečníci / Tau ming chong / Warlords (2007)
Re: Válečníci / Tau ming chong / Warlords (2007)Re: Válečníci / Tau ming chong / Warlords (2007)

DOWNLOAD:


31 říj 2011, 09:27
Profil
Major
Major

Registrován: 01 čer 2009, 15:49
Příspěvky: 342
Příspěvek Re: Válečníci / Tau ming chong / Warlords (2007)

Válečníci / Tau ming chong / Warlords (2007)
rel.Warlords.2007.tvhborip.xvid.czdab

Re: Válečníci / Tau ming chong / Warlords (2007)

CSFD


Info


Download

Re: Válečníci / Tau ming chong / Warlords (2007)



Čtěte


31 říj 2011, 20:06
Profil
Colonel 2 nd class
Colonel 2 nd class

Registrován: 30 pro 2007, 17:16
Příspěvky: 407
Příspěvek Re: Válečníci / Tau ming chong / Warlords (2007)

Válečníci / Tau ming chong (2007)

Video/Zdroj: DVDRip
Audio: CZ MP3 2ch


Re: Válečníci / Tau ming chong / Warlords (2007)

CSFD / IMDB


INFO
Citace:
Format : AVI
File size : 1 021 MiB
Overall bit rate : 2 588 bps

Video
Format : AVC
Format profile : [email protected]
Codec ID : H264
Duration : 1h 45mn
Bit rate : 1 165 Kbps
Width : 720 pixels
Height : 304 pixels
Display aspect ratio : 2.35:1
Frame rate : 100.000 fps
Original frame rate : 25.000 fps
Color space : YUV
Chroma subsampling : 4:2:0
Bit depth : 8 bits
Scan type : Progressive
Bits/(Pixel*Frame) : 0.053
Stream size : 880 MiB (86%)

Audio
Format : MPEG Audio
Codec ID/Hint : MP3
Source duration : 1h 45mn
Bit rate mode : Constant
Bit rate : 160 Kbps
Channel(s) : 2 channels
Sampling rate : 44.1 KHz
Compression mode : Lossy
Stream size : 121 MiB (12%)
Alignment : Aligned on interleaves
Interleave, duration : 26 ms (2.61 video frames)


FASTSHARE



02 led 2019, 16:54
Profil
Zobrazit příspěvky za předchozí:  Seřadit podle  
Odeslat nové téma Odpovědět na téma  [ Příspěvků: 7 ] 

Všechny časy jsou v UTC + 1 hodina


Nemůžete zakládat nová témata v tomto fóru
Nemůžete odpovídat v tomto fóru
Nemůžete upravovat své příspěvky v tomto fóru
Nemůžete mazat své příspěvky v tomto fóru
Nemůžete přikládat soubory v tomto fóru









StahovaniZaSMS Pizza Modena MP3 free download